1000000-CD.ru
Ещё делаем вручную сложные MIX футболки (Ваша картинка + надпись VIP плёнкой!) ЭкСкЛюЗиВ
▼▼Новые SUPER категории ВНИЗУ !▼▼
КорзинаКорзина
на сумму: руб.
Вы пока ничего не выбрали
ИзбранноеИзбранное
Онлайн 18+ ❤ Наша ХХХ гр.Вконтакте ►СЮДА!
В продаже (миллион) Игр Кино Музыки Программ всё в наличии!
Скидка! 20-50%

New! Поиск:
Выше можно уточнить категорию

April Wine - Animal Grace

 April Wine - Animal Grace в интернет магазине DVD, CD, MP3, FLAC дисков 1000000-CD.ru
Увеличить
Поделитесь интересным товаром с друзьями:
Количество CD: 1 шт.

распродажа 50%
для вступивших в одну из наших групп
(Группа ВК) . . . (Группа ОК) Рок-музыка, Зарубежный Rock, Classic Rock & Hard Rock (lossless), Музыка

Стоимость: 160 руб. 80 руб.
Добавить в избранное
Удалить из избранного
Купить (добавить в корзину) - Сейчас в наличии!
В корзине × Оформить заказ
1 April Wine — Paradise
April Wine - Animal Grace в интернет магазине DVD, CD, MP3, FLAC дисков 1000000-CD.ru

April Wine - Animal Grace
Жанр: Hard Rock/Powerpop
Год выпуска диска: 1984
Производитель диска: Canada
Аудио кодек: APE
Тип рипа: image+.cue
Битрейт аудио: lossless
Продолжительность: 42:00
Трэклист:
01. This Could Be The Right One
02. Sons Of The Pioneers
03. Without Your Love
04. Rock Tonite
05. Hard Rock Kid
06. Money Talks
07. Gimme That Thing Called Love
08. Too Hot To Handle
09. Last Time I'll Ever Sing The Blues

Inside

Отчёт EAC

Exact Audio Copy V0.99 prebeta 4 from 23. January 2008
Отчёт EAC об извлечении, выполненном 10. декабря 2008, 20:42
April Wine / Animal Grace
Дисковод: _NEC DVD_RW ND-3550A Adapter: 5 ID: 0
Режим чтения : Достоверность
Использование точного потока : Да
Отключение кэша аудио : Да
Использование указателей C2 : Нет
Коррекция смещения при чтении : 48
Способность читать области Lead-in и Lead-out : Нет
Заполнение пропущенных сэмплов тишиной : Да
Удаление блоков с тишиной в начале и конце : Нет
При вычислениях CRC использовались нулевые сэмплы : Да
Интерфейс : Установленный внешний ASPI-интерфейс
Выходной формат : Monkey's Audio (без потерь)
Выбранный битрейт : High Lossless Compression
Качество : Высокий
Добавление ID3-тэга : Да
Утилита сжатия : C:\Program Files\Monkey's Audio\MAC.exe
TOC извлечённого CD
Трек | Старт | Длительность | Начальный сектор | Конечный сектор
---------------------------------------------------------------------
1 | 0:00.00 | 4:16.08 | 0 | 19207
2 | 4:16.08 | 5:33.37 | 19208 | 44219
3 | 9:49.45 | 4:50.36 | 44220 | 66005
4 | 14:40.06 | 4:58.26 | 66006 | 88381
5 | 19:38.32 | 3:57.12 | 88382 | 106168
6 | 23:35.44 | 3:28.22 | 106169 | 121790
7 | 27:03.66 | 5:02.27 | 121791 | 144467
8 | 32:06.18 | 5:05.61 | 144468 | 167403
9 | 37:12.04 | 4:48.30 | 167404 | 189033
Характеристики диапазона извлечения и сообщения об ошибках
Выбранный диапазон
Имя файла D:\Downloads\April Wine - Animal Grace\April Wine - Animal Grace.wav
Пиковый уровень 100.0 %
Качество диапазона 100.0 %
CRC теста EFC1F98C
CRC копии EFC1F98C
Копирование... OK
Ошибок не произошло
AccurateRip: сводка
Трек 1 нет в базе данных
Трек 2 нет в базе данных
Трек 3 нет в базе данных
Трек 4 нет в базе данных
Трек 5 нет в базе данных
Трек 6 нет в базе данных
Трек 7 нет в базе данных
Трек 8 нет в базе данных
Трек 9 нет в базе данных
Ни одного трека нет в базе AccurateRip
Конец отчёта

Купить товар с надписью «April Wine» (или изменить надпись «April Wine» по вашему вкусу!)
Футболка мужская INNOVATION (имитация хлопка) белая (можно редактировать!)
Футболка мужская INNOVATION (имитация хлопка) белая (можно редактировать!) :
Стоимость: 500 руб.
Футболка мужская REDFORT (двухслойная) белая (можно редактировать!)
Футболка мужская REDFORT (двухслойная) белая (можно редактировать!) :
Стоимость: 500 руб.
Футболка женская INNOVATION (имитация хлопка) белая (можно редактировать!)
Футболка женская INNOVATION (имитация хлопка) белая (можно редактировать!) :
Стоимость: 500 руб.
Футболка женская REDFORT (двухслойная) белая (можно редактировать!)
Футболка женская REDFORT (двухслойная) белая (можно редактировать!) :
Стоимость: 500 руб.
Футболка детская INNOVATION (имитация хлопка) белая (можно редактировать!)
Футболка детская INNOVATION (имитация хлопка) белая (можно редактировать!) :
Стоимость: 500 руб.
Футболка детская REDFORT (двухслойная) белая (можно редактировать!)
Футболка детская REDFORT (двухслойная) белая (можно редактировать!) :
Стоимость: 500 руб.
Маска черная (можно редактировать!)
Маска черная (можно редактировать!) :
Стоимость: 250 руб.
Похожие товары:
 
Более миллиона CD DVD дисков и все в наличии! Игры, караоке, программы, игры, музыка, фильмы, сериалы. Ещё у нас можно, редкую музыку слушать онлайн бесплатно!
Пишите нам