1000000-CD.ru
Ещё делаем вручную сложные MIX футболки (Ваша картинка + надпись VIP плёнкой!) ЭкСкЛюЗиВ
▼▼Новые SUPER категории ВНИЗУ !▼▼
КорзинаКорзина
на сумму: руб.
Вы пока ничего не выбрали
ИзбранноеИзбранное
Онлайн 18+ ❤ Наша ХХХ гр.Вконтакте ►СЮДА!
В продаже (миллион) Игр Кино Музыки Программ всё в наличии!
Скидка! 20-50%

New! Поиск:
Выше можно уточнить категорию

Selected Sessions

 Selected Sessions в интернет магазине DVD, CD, MP3, FLAC дисков 1000000-CD.ru
Увеличить
Поделитесь интересным товаром с друзьями:
Количество DVD: 1 шт.

распродажа 50%
для вступивших в одну из наших групп
(Группа ВК) . . . (Группа ОК) Электронная музыка, Chillout, Lounge, Downtempo, Trip-Hop, Chillout, Lounge, Downtempo (lossless), Музыка

Стоимость: 80 руб. 40 руб.
Добавить в избранное
Удалить из избранного
Купить (добавить в корзину) - Сейчас в наличии!
В корзине × Оформить заказ
Selected Sessions в интернет магазине DVD, CD, MP3, FLAC дисков 1000000-CD.ru

VA - Selected Sessions
(Mixed by Lenny Ibizarre)
Жанр: Downtempo / Ambient / Tech House
Год выпуска диска: 2008
Производитель диска: Spain
Label: Ibizarre Records
Catalog#: SSCD01
Релиз от: sklon
Аудио кодек: FLAC
Тип рипа: image+.cue
Битрейт аудио: lossless
Продолжительность: 2:32:18
Трэклист:
CD1:
01. Mantis - I Feel Love
02. Lenny Ibizarre - A Drop In The Ocean
03. Lua - Jogo Bom
04. Vatos Locos - Angeles Chillangos
05. Deep Dive Coorporation - Trippin
06. Lenny Ibizarre - Pretty As You Feel
07. Lenny Ibizarre - Sloppy Joes Beach Bar
08. Mantis - Freak
09. Lenny Ibizarre - Forbidden Fruit
10. Oforia - Waterfalls
11. Vildtand - 28 Timer
12. Lenny Ibizarre - Yellow Sunshine Voodoo Girl
13. Lenny Ibizarre - Ethereal
14. Nima Gorji - Happiness
15. Miro - Right By Your Side (Illinton Remix)
16. Eliza Lumley - Creep (Ibizarre Remix)
CD2:
01. D Vice - Hidden Somewhere
02. Vildtand - 25 Timer
03. Luetzenkirchen - Papperboy (D Nox and Beckers Remix)
04. Sam Ball - Sunshine Lover (Tom Pooks Remix)
05. Filur - Falling (True 2 Nature Remix)
06. Liquid SOul - Crazy People
07. Dusty Kid - Kore
08. Kolombo - Pile Down
09. Kaysey Taylor - Peaches
10. Nick Muir - G Platz (Pig And Dan Remix)
11. Nima Gorji - Whatever (Lulu Rouge Remix)
12. Monoxcide - Water Balloons
13. Trentemoeller - Kink
Доп. информация: прослушать сэмплы

отчёты ЕАС

CD 1

Exact Audio Copy V0.99 prebeta 4 from 23. January 2008
EAC extraction logfile from 16. May 2009, 11:46
Various / Selected Sessions (Mixed by Lenny Ibizarre) - CD1
Used drive  : PIONEER DVD-RW  DVR-112D   Adapter: 1  ID: 0
Read mode               : Secure
Utilize accurate stream : Yes
Defeat audio cache      : Yes
Make use of C2 pointers : No
Read offset correction                      : 48
Overread into Lead-In and Lead-Out          : No
Fill up missing offset samples with silence : Yes
Delete leading and trailing silent blocks   : No
Null samples used in CRC calculations       : Yes
Used interface                              : Installed external ASPI interface
Used output format              : User Defined Encoder
Selected bitrate                : 192 kBit/s
Quality                         : Low
Add ID3 tag                     : Yes
Command line compressor         : C:\Program Files\E A C Audio\Flac\flac.exe
Additional command line options : -V -8 -T "artist=%a" -T "title=%t" -T "album=%g" -T "date=%y" -T "tracknumber=%n" -T "genre=%m" %s
TOC of the extracted CD
     Track |   Start  |  Length  | Start sector | End sector
    ---------------------------------------------------------
        1  |  0:00.00 |  7:02.12 |         0    |    31661
        2  |  7:02.12 |  3:55.21 |     31662    |    49307
        3  | 10:57.33 |  3:22.09 |     49308    |    64466
        4  | 14:19.42 |  6:41.38 |     64467    |    94579
        5  | 21:01.05 |  1:50.60 |     94580    |   102889
        6  | 22:51.65 |  4:03.12 |    102890    |   121126
        7  | 26:55.02 |  3:52.20 |    121127    |   138546
        8  | 30:47.22 |  5:02.61 |    138547    |   161257
        9  | 35:50.08 |  7:23.07 |    161258    |   194489
       10  | 43:13.15 |  3:23.73 |    194490    |   209787
       11  | 46:37.13 |  5:14.64 |    209788    |   233401
       12  | 51:52.02 |  4:38.74 |    233402    |   254325
       13  | 56:31.01 |  4:52.39 |    254326    |   276264
       14  | 61:23.40 |  5:37.64 |    276265    |   301603
       15  | 67:01.29 |  6:35.38 |    301604    |   331266
       16  | 73:36.67 |  4:05.58 |    331267    |   349699
Range status and errors
Selected range
     Filename G:\lossless-room.moole.ru\Various - Selected Sessions (Mixed by Lenny Ibizarre) - 2CD\Various - Selected Sessions (Mixed by Lenny Ibizarre) - CD1.wav
     Peak level 100.0 %
     Range quality 100.0 %
     Test CRC D596DAB0
     Copy CRC D596DAB0
     Copy OK
No errors occurred
AccurateRip summary
Track  1  accurately ripped (confidence 1)  [CD3A0F53]
Track  2  accurately ripped (confidence 1)  [AB8E0E69]
Track  3  accurately ripped (confidence 1)  [63F50D80]
Track  4  accurately ripped (confidence 1)  [5B38211E]
Track  5  accurately ripped (confidence 1)  [B05A44E8]
Track  6  cannot be verified as accurate (confidence 1)  [4ABD30F0], AccurateRip returned [3847DC09]
Track  7  accurately ripped (confidence 1)  [C8124CDC]
Track  8  accurately ripped (confidence 1)  [0ECD97B5]
Track  9  accurately ripped (confidence 1)  [F50AD7D2]
Track 10  accurately ripped (confidence 1)  [6CE819CD]
Track 11  accurately ripped (confidence 1)  [32906751]
Track 12  accurately ripped (confidence 1)  [C68BFD70]
Track 13  accurately ripped (confidence 1)  [FFA11DE4]
Track 14  accurately ripped (confidence 1)  [48D49CAC]
Track 15  cannot be verified as accurate (confidence 1)  [11C18DC0], AccurateRip returned [2A5B639B]
Track 16  cannot be verified as accurate (confidence 1)  [A675C30C], AccurateRip returned [C3422F27]
13 track(s) accurately ripped
 3 track(s) could not be verified as accurate
Some tracks could not be verified as accurate
End of status report

CD 2

Exact Audio Copy V0.99 prebeta 4 from 23. January 2008
EAC extraction logfile from 16. May 2009, 11:14
Various / Selected Sessions (Mixed by Lenny Ibizarre) - CD2
Used drive  : PIONEER DVD-RW  DVR-112D   Adapter: 1  ID: 0
Read mode               : Secure
Utilize accurate stream : Yes
Defeat audio cache      : Yes
Make use of C2 pointers : No
Read offset correction                      : 48
Overread into Lead-In and Lead-Out          : No
Fill up missing offset samples with silence : Yes
Delete leading and trailing silent blocks   : No
Null samples used in CRC calculations       : Yes
Used interface                              : Installed external ASPI interface
Used output format              : User Defined Encoder
Selected bitrate                : 192 kBit/s
Quality                         : Low
Add ID3 tag                     : Yes
Command line compressor         : C:\Program Files\E A C Audio\Flac\flac.exe
Additional command line options : -V -8 -T "artist=%a" -T "title=%t" -T "album=%g" -T "date=%y" -T "tracknumber=%n" -T "genre=%m" %s
TOC of the extracted CD
     Track |   Start  |  Length  | Start sector | End sector
    ---------------------------------------------------------
        1  |  0:00.00 |  6:14.25 |         0    |    28074
        2  |  6:14.25 |  6:44.67 |     28075    |    58441
        3  | 12:59.17 |  5:18.64 |     58442    |    82355
        4  | 18:18.06 |  6:00.01 |     82356    |   109356
        5  | 24:18.07 |  5:59.74 |    109357    |   136355
        6  | 30:18.06 |  7:42.48 |    136356    |   171053
        7  | 38:00.54 |  6:00.36 |    171054    |   198089
        8  | 44:01.15 |  4:00.01 |    198090    |   216090
        9  | 48:01.16 |  5:45.00 |    216091    |   241965
       10  | 53:46.16 |  5:02.61 |    241966    |   264676
       11  | 58:49.02 |  5:30.00 |    264677    |   289426
       12  | 64:19.02 |  4:30.00 |    289427    |   309676
       13  | 68:49.02 |  5:45.71 |    309677    |   335622
Range status and errors
Selected range
     Filename G:\lossless-room.moole.ru\Various - Selected Sessions (Mixed by Lenny Ibizarre) - 2CD\Various - Selected Sessions (Mixed by Lenny Ibizarre) - CD2.wav
     Peak level 97.7 %
     Range quality 100.0 %
     Test CRC 0E0E35B9
     Copy CRC 0E0E35B9
     Copy OK
No errors occurred
AccurateRip summary
Track  1  accurately ripped (confidence 1)  [33D165E4]
Track  2  accurately ripped (confidence 1)  [A1835397]
Track  3  accurately ripped (confidence 1)  [8AB05C4F]
Track  4  accurately ripped (confidence 1)  [1ED74F50]
Track  5  accurately ripped (confidence 1)  [1B4A9C4E]
Track  6  accurately ripped (confidence 1)  [4CB950A1]
Track  7  accurately ripped (confidence 1)  [D7C1012C]
Track  8  accurately ripped (confidence 1)  [ED2C997E]
Track  9  accurately ripped (confidence 1)  [2FBF50FF]
Track 10  accurately ripped (confidence 1)  [AC6B323B]
Track 11  accurately ripped (confidence 1)  [5A2800A2]
Track 12  accurately ripped (confidence 1)  [6F0DF1E1]
Track 13  cannot be verified as accurate (confidence 1)  [0CBF0393], AccurateRip returned [AB6608D0]
12 track(s) accurately ripped
 1 track(s) could not be verified as accurate
Some tracks could not be verified as accurate
End of status report

Audiochecker

Started at: среда, 20. 05. 2009. - 10:32.51
2 files found
1 -===- F:\My own private\music\Chillout, Lounge, Downtempo (Lossless)\VA\VA - Selected Sessions (Mixed by Lenny Ibizarre)\VA - Selected Sessions_BabyChilly_release\CD 1\Various - Selected Sessions (Mixed by Lenny Ibizarre) - CD1.flac
  Extracted successfully
  Conclusion: this track is MPEG with probability 95%
  Tempfile successfully deleted.
2 -===- F:\My own private\music\Chillout, Lounge, Downtempo (Lossless)\VA\VA - Selected Sessions (Mixed by Lenny Ibizarre)\VA - Selected Sessions_BabyChilly_release\CD 2\Various - Selected Sessions (Mixed by Lenny Ibizarre) - CD2.flac
  Extracted successfully
  Conclusion: this track is CDDA with probability 100%
  Tempfile successfully deleted.
Finished at: среда, 20. 05. 2009. - 10:48.57 (operation time: 0:16.05)

?

Купить товар с надписью «Selected» (или изменить надпись «Selected» по вашему вкусу!)
Футболка мужская INNOVATION (имитация хлопка) белая (можно редактировать!)
Футболка мужская INNOVATION (имитация хлопка) белая (можно редактировать!) :
Стоимость: 500 руб.
Футболка мужская REDFORT (двухслойная) белая (можно редактировать!)
Футболка мужская REDFORT (двухслойная) белая (можно редактировать!) :
Стоимость: 500 руб.
Футболка женская INNOVATION (имитация хлопка) белая (можно редактировать!)
Футболка женская INNOVATION (имитация хлопка) белая (можно редактировать!) :
Стоимость: 500 руб.
Футболка женская REDFORT (двухслойная) белая (можно редактировать!)
Футболка женская REDFORT (двухслойная) белая (можно редактировать!) :
Стоимость: 500 руб.
Футболка детская INNOVATION (имитация хлопка) белая (можно редактировать!)
Футболка детская INNOVATION (имитация хлопка) белая (можно редактировать!) :
Стоимость: 500 руб.
Футболка детская REDFORT (двухслойная) белая (можно редактировать!)
Футболка детская REDFORT (двухслойная) белая (можно редактировать!) :
Стоимость: 500 руб.
Маска черная (можно редактировать!)
Маска черная (можно редактировать!) :
Стоимость: 250 руб.
Похожие товары:
 
Более миллиона CD DVD дисков и все в наличии! Игры, караоке, программы, игры, музыка, фильмы, сериалы. Ещё у нас можно, редкую музыку слушать онлайн бесплатно!
Пишите нам