1000000-CD.ru
Ещё делаем вручную сложные MIX футболки (Ваша картинка + надпись VIP плёнкой!) ЭкСкЛюЗиВ
▼▼Новые SUPER категории ВНИЗУ !▼▼
КорзинаКорзина
на сумму: руб.
Вы пока ничего не выбрали
ИзбранноеИзбранное
Онлайн 18+ ❤ Наша ХХХ гр.Вконтакте ►СЮДА!
В продаже (миллион) Игр Кино Музыки Программ всё в наличии!
Скидка! 20-50%

New! Поиск:
Выше можно уточнить категорию

One Self - Children of Possibility

 One Self  - Children of Possibility в интернет магазине DVD, CD, MP3, FLAC дисков 1000000-CD.ru
Увеличить
Поделитесь интересным товаром с друзьями:
Количество CD: 1 шт.

распродажа 50%
для вступивших в одну из наших групп
(Группа ВК) . . . (Группа ОК) Электронная музыка, Chillout, Lounge, Downtempo, Trip-Hop, Trip Hop, Abstract Hip-Hop (lossless), Музыка

Стоимость: 80 руб. 40 руб.
Добавить в избранное
Удалить из избранного
Купить (добавить в корзину) - Сейчас в наличии!
В корзине × Оформить заказ
5 One Self — Sunshine
One Self - Children of Possibility в интернет магазине DVD, CD, MP3, FLAC дисков 1000000-CD.ru

One Self - Children of Possibility

Жанр: Hip-Hop
Год выпуска диска: 2005
Производитель диска: UK
Аудио кодек: FLAC
Тип рипа: tracks+.cue
Битрейт аудио: lossless
Продолжительность: 59:42.280
Трэклист:
01. Fear The Labour
02. Trying To Spear (feat. Demolition Man)
03. Be Your Own
04. Temptation
05. Over Expose
06. Bluebird
07. SD2
08. Paranoid
09. Hollow Human Beings
10. Cupid Smiling The Smile (feat. Little Green)
11. Sunshine
12. Unfamiliar Places
Видео:
One Self - Bluebird
Format: MPG
Video: MPEG1 1.8Mbit/s, resolution: 352x288
Audio: MPEG2 128 kbit/s, 2 channels

Screenshots


 

 

Доп. информация:

Бесподобно талантливые ребята, креативная музыка, подходящая под разные настроения и ситуации... Кто слышал, знает, кто не слышал - настоятельно рекомендую нормальный рип.
Мой рип с оригинальных дисков, образ снимался два раза, на разных компьютерах различной конфигурации, треки из двух рипов идентичны. Плитка совпала с AccurateRip DB [confidence: 7]. В папке FLAC tracks + noncompliant CUE + *.md5 checksum + сканы + видео.

EAC log:

Exact Audio Copy V0.99 prebeta 5 from 4. May 2009
EAC extraction logfile from 6. June 2009, 19:57
One Self / Children Of Possibility
Used drive  : TOSHIBA DVDW/HD TS-L802A   Adapter: 1  ID: 0
Read mode               : Secure
Utilize accurate stream : Yes
Defeat audio cache      : Yes
Make use of C2 pointers : No
Read offset correction                      : 696
Overread into Lead-In and Lead-Out          : No
Fill up missing offset samples with silence : Yes
Delete leading and trailing silent blocks   : No
Null samples used in CRC calculations       : Yes
Used interface                              : Native Win32 interface for Win NT & 2000
Gap handling                                : Appended to previous track
Used output format              : User Defined Encoder
Selected bitrate                : 768 kBit/s
Quality                         : High
Add ID3 tag                     : No
Command line compressor         : C:\Program Files\ExactAudioCopy\Flac\flac.exe
Additional command line options : -8 -V -T "ARTIST=%a" -T "TITLE=%t" -T "ALBUM=%g" -T "DATE=%y" -T "TRACKNUMBER=%n" -T "GENRE=%m" -T "COMMENT=%e" %s -o %d
TOC of the extracted CD
     Track |   Start  |  Length  | Start sector | End sector
    ---------------------------------------------------------
        1  |  0:00.00 |  5:30.71 |         0    |    24820
        2  |  5:30.71 |  4:17.07 |     24821    |    44102
        3  |  9:48.03 |  4:44.68 |     44103    |    65470
        4  | 14:32.71 |  4:45.73 |     65471    |    86918
        5  | 19:18.69 |  5:46.40 |     86919    |   112908
        6  | 25:05.34 |  3:45.52 |    112909    |   129835
        7  | 28:51.11 |  6:33.57 |    129836    |   159367
        8  | 35:24.68 |  4:15.61 |    159368    |   178553
        9  | 39:40.54 |  4:40.45 |    178554    |   199598
       10  | 44:21.24 |  4:03.26 |    199599    |   217849
       11  | 48:24.50 |  6:30.69 |    217850    |   247168
       12  | 54:55.44 |  4:46.52 |    247169    |   268670
       13  | 62:14.21 |  7:47.70 |    280071    |   315165
Track  1
     Filename S:\My_Documents\Music\EAC_rips\2005 One Self - Children Of Possibility\01. Fear The Labour.wav
     Pre-gap length  0:00:02.00
     Peak level 97.7 %
     Track quality 100.0 %
     Test CRC 7FF9E69D
     Copy CRC 7FF9E69D
     Accurately ripped (confidence 7)  [FCB7F40C]
     Copy OK
Track  2
     Filename S:\My_Documents\Music\EAC_rips\2005 One Self - Children Of Possibility\02. Trying To Spear (feat. Demolition Man).wav
     Peak level 97.7 %
     Track quality 100.0 %
     Test CRC FB9F7348
     Copy CRC FB9F7348
     Accurately ripped (confidence 7)  [C6840BDD]
     Copy OK
Track  3
     Filename S:\My_Documents\Music\EAC_rips\2005 One Self - Children Of Possibility\03. Be Your Own.wav
     Peak level 97.7 %
     Track quality 99.9 %
     Test CRC ED4D4899
     Copy CRC ED4D4899
     Accurately ripped (confidence 8)  [8EE79282]
     Copy OK
Track  4
     Filename S:\My_Documents\Music\EAC_rips\2005 One Self - Children Of Possibility\04. Temptation.wav
     Peak level 97.7 %
     Track quality 100.0 %
     Test CRC 8C03DDB0
     Copy CRC 8C03DDB0
     Accurately ripped (confidence 7)  [F9DB166E]
     Copy OK
Track  5
     Filename S:\My_Documents\Music\EAC_rips\2005 One Self - Children Of Possibility\05. Over Expose.wav
     Peak level 97.7 %
     Track quality 100.0 %
     Test CRC 7D11FB18
     Copy CRC 7D11FB18
     Accurately ripped (confidence 7)  [B14A38E6]
     Copy OK
Track  6
     Filename S:\My_Documents\Music\EAC_rips\2005 One Self - Children Of Possibility\06. Bluebird.wav
     Peak level 97.7 %
     Track quality 100.0 %
     Test CRC 8DD30FFB
     Copy CRC 8DD30FFB
     Accurately ripped (confidence 7)  [40AE12B9]
     Copy OK
Track  7
     Filename S:\My_Documents\Music\EAC_rips\2005 One Self - Children Of Possibility\07. SD2.wav
     Peak level 98.8 %
     Track quality 100.0 %
     Test CRC 921660AF
     Copy CRC 921660AF
     Accurately ripped (confidence 7)  [4363CA7F]
     Copy OK
Track  8
     Filename S:\My_Documents\Music\EAC_rips\2005 One Self - Children Of Possibility\08. Paranoid.wav
     Peak level 97.7 %
     Track quality 100.0 %
     Test CRC E568CCBC
     Copy CRC E568CCBC
     Accurately ripped (confidence 7)  [B4F90730]
     Copy OK
Track  9
     Filename S:\My_Documents\Music\EAC_rips\2005 One Self - Children Of Possibility\09. Hollow Human Beings.wav
     Peak level 97.7 %
     Track quality 99.9 %
     Test CRC 3E77A7B3
     Copy CRC 3E77A7B3
     Accurately ripped (confidence 7)  [2F83DC86]
     Copy OK
Track 10
     Filename S:\My_Documents\Music\EAC_rips\2005 One Self - Children Of Possibility\10. Cupid Smiling The Smile (feat. Little Green).wav
     Peak level 97.7 %
     Track quality 99.9 %
     Test CRC 3C705581
     Copy CRC 3C705581
     Accurately ripped (confidence 7)  [10BA6CF8]
     Copy OK
Track 11
     Filename S:\My_Documents\Music\EAC_rips\2005 One Self - Children Of Possibility\11. Sunshine.wav
     Peak level 97.7 %
     Track quality 99.9 %
     Test CRC FB686E21
     Copy CRC FB686E21
     Accurately ripped (confidence 7)  [2DEFF814]
     Copy OK
Track 12
     Filename S:\My_Documents\Music\EAC_rips\2005 One Self - Children Of Possibility\12. Unfamiliar Places.wav
     Peak level 97.7 %
     Track quality 100.0 %
     Test CRC CE8381D4
     Copy CRC CE8381D4
     Accurately ripped (confidence 7)  [6B542003]
     Copy OK
All tracks accurately ripped
No errors occurred
End of status report
Купить товар с надписью «Children» (или изменить надпись «Children» по вашему вкусу!)
Футболка мужская INNOVATION (имитация хлопка) белая (можно редактировать!)
Футболка мужская INNOVATION (имитация хлопка) белая (можно редактировать!) :
Стоимость: 500 руб.
Футболка мужская REDFORT (двухслойная) белая (можно редактировать!)
Футболка мужская REDFORT (двухслойная) белая (можно редактировать!) :
Стоимость: 500 руб.
Футболка женская INNOVATION (имитация хлопка) белая (можно редактировать!)
Футболка женская INNOVATION (имитация хлопка) белая (можно редактировать!) :
Стоимость: 500 руб.
Футболка женская REDFORT (двухслойная) белая (можно редактировать!)
Футболка женская REDFORT (двухслойная) белая (можно редактировать!) :
Стоимость: 500 руб.
Футболка детская INNOVATION (имитация хлопка) белая (можно редактировать!)
Футболка детская INNOVATION (имитация хлопка) белая (можно редактировать!) :
Стоимость: 500 руб.
Футболка детская REDFORT (двухслойная) белая (можно редактировать!)
Футболка детская REDFORT (двухслойная) белая (можно редактировать!) :
Стоимость: 500 руб.
Маска черная (можно редактировать!)
Маска черная (можно редактировать!) :
Стоимость: 250 руб.
Похожие товары:
 
Более миллиона CD DVD дисков и все в наличии! Игры, караоке, программы, игры, музыка, фильмы, сериалы. Ещё у нас можно, редкую музыку слушать онлайн бесплатно!
Пишите нам